Cuesheet

aus Wikipedia, der freien Enzyklopädie
Wechseln zu: Navigation, Suche

Das Cuesheet ['kju:ʃi:t] (engl., etwa: Einsatzplan) ist eine Text-Datei, die normalerweise Metadaten (z. B. Titellängen, Gesamtspieldauer) über Abbilder von Compact Discs enthält, die benötigt werden, um diese auf eine CD-R brennen zu können. Entwickelt wurde das Cuesheet-Format um das Jahr 1995 von den Programmierern der Software CDRWIN. Diese unterstützt auch heute noch dieses Format.

Beispiel:

FILE "IMAGE.BIN" BINARY
  TRACK 01 MODE1/2352
    INDEX 01 00:00:00 
Hinweise zu diesem Beispiel: Hier wird die CD-ROM aus der Datei „IMAGE.BIN“ generiert. Die Daten dort sind Binärdaten (Rohdaten), und keine Audiodaten.
Es wird ein Track geschrieben (bei Daten-CDs üblich), und zwar im Mode 1. Obwohl dieser Modus nur 2048 Bytes Nutzdaten kennt, liegen die Daten in der Datei offenbar schon mit allen Sektornummern und Fehlerkorrekturdaten vor, und nehmen daher 2352 Bytes pro Sektor in Anspruch.

Manche Audioplayer, so z. B. VLC, Foobar2000 oder Clementine unterstützen die Wiedergabe dieser Abbilder, als würde eine normale Audio-CD vorliegen. Dabei finden ggf. weitere Metadaten Anwendung, die zum simplen Brennen einer CD nicht erforderlich sind.

Bin/Cue-Dateien, meist mit der Dateinamenserweiterung .cue, werden oftmals von Programmen, die virtuelle CD-Laufwerke bereitstellen, als Eingabe unterstützt. Mit deren Hilfe lassen sich aus diesen Dateien ISO-Abbilder erstellen.

Im folgenden Beispiel eines Cue-Sheets sind sowohl die Titel der einzelnen Tracks, als auch deren Interpret und die jeweiligen ReplayGain-Werte enthalten.

Beispiel:

PERFORMER "BSO, William Steinberg"
TITLE "Also Sprach Zarathustra - Die Planeten"
REM REPLAYGAIN_ALBUM_GAIN -5.24 dB
REM REPLAYGAIN_ALBUM_PEAK 0.999938
FILE "Also sprach Zarathustra - Die Planeten.wav" WAVE
  TRACK 01 AUDIO
    TITLE "Also sprach Zarathustra - Einleitung"
    PERFORMER "BSO, William Steinberg"
    INDEX 01 00:00:00
    REM REPLAYGAIN_TRACK_GAIN -6.27 dB
    REM REPLAYGAIN_TRACK_PEAK 0.999938
  TRACK 02 AUDIO
    TITLE "Also sprach Zarathustra - Von den Hinterweltlern"
    PERFORMER "BSO, William Steinberg"
    INDEX 01 02:00:28
    REM REPLAYGAIN_TRACK_GAIN +0.93 dB
    REM REPLAYGAIN_TRACK_PEAK 0.724884
    ...

Weblinks[Bearbeiten]